<?xml version="1.0" encoding="UTF-8"?><svg xmlns="http://www.w3.org/2000/svg" xmlns:xlink="http://www.w3.org/1999/xlink" contentScriptType="text/ecmascript" zoomAndPan="magnify" contentStyleType="text/css" enable-background="new 0 0 575.7 755.453" version="1.1" width="500.0" xml:space="preserve" preserveAspectRatio="xMidYMid meet" viewBox="62.549004 209.95099 135.272 354.63428" height="1310.8192" x="0px" y="0px"><font horiz-adv-x="1000"><!-- Copyright (c) 1988 Adobe Systems Incorporated.  All Rights Reserved.Helvetica is a registered trademark of Linotype AG and/or its subsidiaries. --><font-face font-family="HelveticaNeue-Roman" units-per-em="1000" underline-position="-100" underline-thickness="50"/><missing-glyph horiz-adv-x="278"/><glyph unicode="E" horiz-adv-x="611" d="M78,0l496,0l0,80l-401,0l0,247l371,0l0,80l-371,0l0,227l398,0l0,80l-493,0z"/><glyph unicode="J" horiz-adv-x="519" d="M441,714l-95,0l0,-522C346,113 319,63 232,63C139,63 117,122 117,205l0,30l-95,0l0,-44C22,57 97,-17 230,-17C390,-17 441,81 441,178z"/><glyph unicode="X" horiz-adv-x="611" d="M-1,0l107,0l198,295l192,-295l116,0l-251,367l236,347l-106,0l-186,-279l-178,279l-114,0l235,-347z"/></font><font horiz-adv-x="1000"><!-- Copyright (C) 2004 Hoefler &amp; Frere-Jones Typography, Inc. www.typography.com --><!-- Copyright: Copyright 2019 Adobe System Incorporated. All rights reserved. --><font-face font-family="Whitney-Semibold" units-per-em="1000" underline-position="-133" underline-thickness="20"/><missing-glyph horiz-adv-x="500"/><glyph unicode="D" horiz-adv-x="704" d="M656,346C656,549 532,690 292,690l-219,0l0,-690l219,0C527,0 656,141 656,346M521,345C521,183 434,109 289,109l-84,0l0,472l86,0C429,581 521,504 521,345z"/><glyph unicode="M" horiz-adv-x="895" d="M842,0l-53,690l-165,0l-174,-521l-175,521l-168,0l-53,-690l119,0l35,504l175,-506l116,0l174,506l37,-504z"/><glyph unicode="S" horiz-adv-x="533" d="M493,197C493,304 441,353 299,411C203,451 181,472 181,516C181,558 210,590 276,590C330,590 389,569 439,536l20,120C409,682 355,698 277,698C148,698 54,627 54,505C54,398 108,354 242,299C342,256 366,235 366,184C366,129 324,100 263,100C194,100 122,127 64,161l-20,-121C105,11 177,-8 261,-8C394,-8 493,62 493,197z"/><glyph unicode="U" horiz-adv-x="688" d="M623,270l0,420l-133,0l0,-419C490,165 441,103 343,103C246,103 198,169 198,274l0,416l-132,0l0,-423C66,87 175,-12 342,-12C509,-12 623,87 623,270z"/><glyph unicode="a" horiz-adv-x="503" d="M445,0l0,331C445,447 383,493 258,493C181,493 122,476 66,454l15,-96C133,381 186,397 242,397C295,397 325,377 325,325l0,-14C130,292 34,241 34,124C34,40 89,-10 171,-10C243,-10 293,22 332,63l10,-63M325,133C292,100 253,81 212,81C175,81 153,102 153,137C153,183 186,224 325,241z"/><glyph unicode="c" horiz-adv-x="460" d="M425,38l-16,102C364,105 326,94 284,94C211,94 157,142 157,242C157,338 207,389 276,389C323,389 362,375 403,344l17,108C382,476 334,493 269,493C141,493 36,407 36,239C36,81 131,-9 265,-9C326,-9 376,4 425,38z"/><glyph unicode="e" horiz-adv-x="502" d="M466,247C466,384 401,493 256,493C130,493 36,398 36,241C36,67 137,-10 272,-10C350,-10 413,13 465,49l-14,94C398,106 347,83 285,83C211,83 161,124 155,218l310,0C465,225 466,237 466,247M349,293l-192,0C166,372 205,410 253,410C311,410 341,368 349,293z"/><glyph unicode="i" horiz-adv-x="252" d="M198,632C198,673 166,702 127,702C87,702 55,673 55,632C55,592 87,564 127,564C166,564 198,592 198,632M186,0l0,483l-120,0l0,-483z"/><glyph unicode="k" horiz-adv-x="493" d="M485,11l-189,256l178,216l-135,0l-158,-200l0,439l-120,-19l0,-703l120,0l0,239l177,-246z"/><glyph unicode="n" horiz-adv-x="532" d="M473,0l0,348C473,438 425,493 335,493C270,493 219,458 174,415l-11,68l-102,0l0,-483l120,0l0,326C216,363 253,387 291,387C335,387 353,358 353,316l0,-316z"/><glyph unicode="p" horiz-adv-x="541" d="M504,255C504,417 423,493 322,493C255,493 208,456 174,417l-11,66l-102,0l0,-669l120,18l0,182C210,3 247,-5 293,-5C404,-5 504,75 504,255M383,248C383,142 336,91 274,91C233,91 210,98 181,112l0,207C213,360 247,387 290,387C344,387 383,341 383,248z"/><glyph unicode="r" horiz-adv-x="367" d="M352,374l-19,119C258,489 210,442 178,386l-15,97l-102,0l0,-483l120,0l0,277C215,329 277,369 352,374z"/><glyph unicode=" " horiz-adv-x="214"/><glyph unicode="u" horiz-adv-x="532" d="M471,0l0,483l-120,0l0,-326C316,121 278,97 240,97C197,97 179,125 179,167l0,316l-120,0l0,-347C59,45 106,-10 197,-10C261,-10 313,25 358,68l11,-68z"/></font><font horiz-adv-x="1000"><!-- &quot;Helvetica Neue&quot; is a trademark of Heidelberger Druckmaschinen AG, which may be registered in certain jurisdictions, exclusivly licensed through Linotype Library GmbH, a wholly owned subsidiary of Heidelberger Druckmaschinen AG. --><font-face font-family="HelveticaNeue-CondensedBold" units-per-em="1000" underline-position="-100" underline-thickness="50"/><missing-glyph horiz-adv-x="500" d="M442,8l-384,0l0,496l384,0M50,512l0,-512l400,0l0,512z"/><glyph unicode=" " horiz-adv-x="240"/><glyph unicode="0" horiz-adv-x="480" d="M18,330C18,267 22,214 29,171C36,127 48,91 65,64C82,37 104,17 133,6C162,-5 197,-11 240,-11C293,-11 334,-1 364,19C393,39 415,67 430,102C445,137 454,177 457,222C460,267 462,315 462,364C462,427 459,480 452,524C445,567 433,603 416,630C399,657 376,677 348,690C319,702 283,708 240,708C187,708 146,698 117,677C87,656 65,628 50,593C35,558 26,517 23,472C20,427 18,379 18,330M162,299l0,77C162,421 163,459 166,490C168,521 172,545 178,564C183,582 191,595 201,603C211,610 224,614 240,614C255,614 268,611 278,605C288,599 296,588 302,572C308,555 312,533 315,505C317,476 318,440 318,395l0,-77C318,273 317,235 315,204C312,173 308,149 303,131C297,112 289,99 279,92C269,84 256,80 240,80C225,80 212,83 202,89C192,95 184,106 178,123C172,139 168,161 166,190C163,218 162,254 162,299z"/><glyph unicode="1" horiz-adv-x="480" d="M182,0l144,0l0,708l-106,0C213,668 195,639 168,621C140,603 102,594 54,594l-13,0l0,-94l141,0z"/><glyph unicode="2" horiz-adv-x="480" d="M454,0l0,112l-267,0C190,125 198,141 210,160C222,178 239,197 260,216l80,74C360,308 377,326 391,343C405,360 416,377 425,395C434,413 440,432 444,452C448,471 450,492 450,515C450,577 433,625 398,658C363,691 310,708 238,708C162,708 106,690 71,655C36,620 18,569 18,503l0,-27l138,0C156,495 157,512 159,529C160,546 164,560 170,573C175,586 183,596 194,603C204,610 218,614 236,614C283,614 306,585 306,526C306,508 305,492 304,478C302,464 298,451 293,439C288,427 280,415 271,403C261,391 248,378 232,364l-58,-54C148,286 125,262 106,239C86,215 70,191 57,166C44,141 34,115 28,88C21,61 18,31 18,0z"/><glyph unicode="3" horiz-adv-x="480" d="M158,207l-138,0l0,-3C20,135 37,82 71,45C105,8 156,-11 225,-11C274,-11 314,-5 345,8C375,21 399,37 416,58C433,79 445,102 451,127C457,152 460,177 460,201C460,246 451,283 432,313C413,342 380,361 334,368l0,2C368,377 395,395 414,422C433,449 442,483 442,526C442,589 424,635 389,664C353,693 303,708 238,708C170,708 118,691 83,657C48,622 30,570 30,499l132,0C162,516 163,531 165,545C166,559 170,571 175,582C180,592 188,600 198,606C207,611 220,614 235,614C258,614 276,607 287,593C298,579 304,555 304,521C304,506 303,492 300,479C297,466 292,454 286,444C279,433 271,425 261,419C250,412 237,409 222,409l-47,0l0,-94l48,0C243,315 259,312 271,305C283,298 292,289 299,278C306,267 310,254 313,240C315,225 316,210 316,194C316,179 315,164 314,150C312,136 308,124 303,114C297,103 289,95 279,89C268,83 254,80 237,80C206,80 185,91 175,113C164,134 159,166 158,207z"/><glyph unicode="C" horiz-adv-x="537" d="M355,473l144,0C499,499 497,527 494,557C490,586 481,614 466,640C451,665 429,686 400,703C370,720 329,728 278,728C224,728 181,719 149,701C117,682 93,657 76,624C59,591 48,552 43,507C38,461 35,411 35,357C35,302 38,252 43,207C48,162 59,123 76,90C93,57 117,32 149,15C181,-2 224,-11 278,-11C325,-11 364,-4 394,11C423,26 446,46 463,72C479,98 490,128 496,163C502,198 505,234 505,273l-144,0C361,234 359,203 354,180C349,156 343,138 335,125C327,112 318,103 307,99C296,94 284,92 271,92C256,92 242,95 231,102C219,108 209,120 202,139C194,157 188,183 185,216C181,249 179,293 179,347C179,398 180,441 183,476C186,511 190,539 197,561C204,582 213,598 225,608C236,617 251,622 269,622C302,622 324,610 337,587C349,563 355,525 355,473z"/><glyph unicode="X" horiz-adv-x="537" d="M20,714l164,-353l-178,-361l158,0l102,242l103,-242l162,0l-178,361l166,353l-157,0l-91,-231l-92,231z"/><glyph unicode="a" horiz-adv-x="481" d="M297,269l0,-106C297,148 294,136 289,125C284,114 277,106 269,99C260,92 251,88 241,85C231,82 221,80 212,80C193,80 180,87 172,102C164,117 160,134 160,155C160,179 166,198 178,212C190,226 210,236 238,242C247,244 256,247 267,252C278,256 288,262 297,269M45,373l124,0l0,15C169,409 174,426 185,439C196,452 212,458 233,458C256,458 273,452 283,441C292,429 297,413 297,392C297,374 293,360 285,351C277,342 263,334 242,329l-78,-21C140,301 120,294 103,285C86,276 72,266 61,253C50,240 41,224 36,206C31,187 28,165 28,140C28,122 30,104 35,86C40,67 47,51 57,36C67,21 80,10 97,2C114,-7 134,-11 158,-11C191,-11 219,-7 240,2C261,10 279,28 295,56l2,0C299,47 301,37 304,28C306,18 309,9 314,0l132,0C439,16 435,31 433,45C430,59 429,79 429,104l0,283C429,411 427,433 422,454C417,474 407,491 393,506C379,521 359,532 334,540C309,548 275,552 234,552C208,552 184,549 161,544C138,538 118,529 101,516C84,503 70,486 60,465C50,444 45,417 45,386z"/><glyph unicode="b" horiz-adv-x="500" d="M46,714l0,-714l132,0l0,57l2,0C195,32 213,14 232,4C251,-6 274,-11 302,-11C359,-11 400,11 427,54C454,97 467,169 467,269C467,369 454,441 427,486C400,530 359,552 302,552C276,552 254,547 236,536C217,525 201,509 186,488l-2,0l0,226M184,269C184,328 189,372 198,402C207,431 226,446 257,446C287,446 307,431 316,402C325,372 329,328 329,269C329,210 325,166 316,137C307,107 287,92 257,92C226,92 207,107 198,137C189,166 184,210 184,269z"/><glyph unicode="e" horiz-adv-x="463" d="M305,330l-141,0l0,21C164,364 165,376 168,389C170,402 174,413 179,424C184,434 192,442 201,449C210,455 221,458 235,458C249,458 261,455 270,450C279,444 286,436 291,425C296,414 299,400 301,385C303,369 304,351 305,330M164,248l273,0l0,31C437,320 434,358 429,392C424,425 414,454 399,478C384,501 364,520 339,533C313,546 280,552 240,552C193,552 156,544 128,529C100,514 79,493 64,467C49,441 39,411 34,378C29,345 26,310 26,274C26,240 28,206 31,172C34,138 42,107 55,80C68,53 89,31 117,14C145,-3 184,-11 234,-11C300,-11 348,5 379,38C410,71 426,118 429,181l-124,0C301,147 294,122 283,105C272,88 255,80 232,80C219,80 209,84 200,91C191,98 184,107 179,119C174,130 170,144 168,159C165,174 164,189 164,205z"/><glyph unicode="i" horiz-adv-x="240" d="M51,722l0,-118l138,0l0,118M51,538l0,-538l138,0l0,538z"/><glyph unicode="l" horiz-adv-x="240" d="M51,714l0,-714l138,0l0,714z"/><glyph unicode="n" horiz-adv-x="500" d="M46,538l0,-538l138,0l0,357C184,416 208,446 257,446C278,446 293,441 302,430C311,419 316,399 316,371l0,-371l138,0l0,399C454,453 442,492 419,516C395,540 361,552 317,552C287,552 260,546 237,534C214,521 195,502 180,475l-2,0l0,63z"/><glyph unicode="o" horiz-adv-x="480" d="M166,269C166,296 167,322 168,345C169,368 173,388 178,405C183,422 190,435 200,444C210,453 223,458 240,458C268,458 287,443 298,414C309,385 314,336 314,269C314,202 309,153 298,124C287,95 268,80 240,80C223,80 210,85 200,94C190,103 183,116 178,133C173,150 169,170 168,193C167,216 166,242 166,269M28,269C28,222 31,181 38,146C45,110 56,80 72,57C88,33 110,16 137,5C164,-6 199,-12 240,-11C279,-11 313,-5 340,6C367,17 388,35 405,59C422,82 434,112 441,147C448,182 452,223 452,269C452,316 449,358 442,393C435,428 424,458 408,482C392,506 370,524 343,536C316,547 281,553 240,552C201,552 168,546 141,534C114,521 92,503 75,480C58,456 46,426 39,391C32,356 28,315 28,269z"/><glyph unicode="p" horiz-adv-x="500" d="M46,538l0,-711l138,0l0,223l2,0C201,29 217,13 236,4C254,-6 276,-11 302,-11C359,-11 400,11 427,54C454,97 467,169 467,269C467,369 454,441 427,486C400,530 359,552 302,552C274,552 251,547 232,536C213,525 195,506 180,481l-2,0l0,57M184,269C184,328 189,372 198,402C207,431 226,446 257,446C287,446 307,431 316,402C325,372 329,328 329,269C329,210 325,166 316,137C307,107 287,92 257,92C226,92 207,107 198,137C189,166 184,210 184,269z"/><glyph unicode="r" horiz-adv-x="333" d="M46,538l0,-538l138,0l0,323C184,341 187,356 193,369C199,381 207,391 217,399C227,406 238,412 250,415C262,418 274,420 286,420C293,420 301,420 308,420C315,419 322,419 329,418l0,132C325,551 321,551 317,552C312,552 308,552 304,552C275,552 251,544 231,529C211,513 194,492 180,466l-2,0l0,72z"/><glyph unicode="t" horiz-adv-x="296" d="M76,692l0,-154l-70,0l0,-94l70,0l0,-308C76,109 78,86 81,68C84,50 91,36 100,25C109,14 122,6 139,3C156,-1 177,-3 204,-3C220,-3 235,-2 250,-1C264,0 279,0 294,0l0,96C289,95 284,95 279,95C274,94 268,94 263,94C243,94 230,99 224,108C217,117 214,132 214,153l0,291l80,0l0,94l-80,0l0,154z"/><glyph unicode="y" horiz-adv-x="444" d="M46,-70l0,-103l56,0C134,-173 161,-171 182,-166C203,-161 221,-151 236,-136C251,-121 264,-100 275,-72C286,-45 297,-9 309,36l130,502l-138,0l-70,-372l-2,0l-80,372l-144,0l151,-538C154,-22 148,-40 137,-53C126,-66 107,-73 82,-73C70,-73 58,-72 46,-70z"/></font><font horiz-adv-x="1000"><!-- &quot;Helvetica Neue&quot; is a trademark of Heidelberger Druckmaschinen AG, which may be registered in certain jurisdictions, exclusivly licensed through Linotype Library GmbH, a wholly owned subsidiary of Heidelberger Druckmaschinen AG. --><font-face font-family="HelveticaNeue" units-per-em="1000" underline-position="-100" underline-thickness="50"/><missing-glyph horiz-adv-x="500" d="M409,666l-307,0l0,-619l307,0M460,712l0,-711l-409,0l0,711z"/><glyph unicode=" " horiz-adv-x="278"/><glyph unicode="-" horiz-adv-x="389" d="M50,318l0,-80l289,0l0,80z"/><glyph unicode="0" horiz-adv-x="556" d="M132,349C132,366 132,386 133,407C133,428 135,449 138,470C141,491 145,511 151,531C156,551 165,569 176,584C187,599 200,611 217,620C234,629 254,634 278,634C302,634 322,629 339,620C356,611 370,599 381,584C392,569 400,551 406,531C411,511 416,491 419,470C422,449 423,428 424,407C424,386 424,366 424,349C424,322 423,293 422,260C420,227 415,196 406,167C397,138 382,113 362,93C342,73 314,63 278,63C242,63 214,73 194,93C174,113 160,138 151,167C142,196 136,227 135,260C133,293 132,322 132,349M42,348C42,322 43,295 44,267C45,239 49,212 54,185C59,158 67,133 77,110C87,86 101,65 118,47C135,29 157,15 184,5C210,-6 241,-11 278,-11C315,-11 347,-6 373,5C399,15 421,29 438,47C455,65 469,86 479,110C489,133 497,158 502,185C507,212 511,239 512,267C513,295 514,322 514,348C514,374 513,401 512,429C511,457 507,484 502,511C497,538 489,563 479,587C469,611 455,632 438,650C421,668 399,682 373,693C346,704 315,709 278,709C241,709 210,704 184,693C157,682 135,668 118,650C101,632 87,611 77,587C67,563 59,538 54,511C49,484 45,457 44,429C43,401 42,374 42,348z"/><glyph unicode="2" horiz-adv-x="556" d="M44,458l85,0C128,479 131,501 136,522C141,543 149,561 160,578C171,595 186,608 204,619C221,629 242,634 267,634C286,634 303,631 320,625C337,619 351,610 364,599C376,588 386,574 393,559C400,543 404,525 404,506C404,481 400,460 393,441C385,422 374,405 359,389C344,373 325,357 302,342C279,326 253,309 223,290C198,275 175,260 152,243C129,226 109,207 91,185C73,163 58,137 47,108C35,78 27,42 24,0l463,0l0,75l-364,0C127,97 136,117 149,134C162,151 177,166 196,181C214,196 234,210 256,223C278,236 300,249 322,262C344,276 365,291 386,306C407,321 425,339 441,358C457,377 470,398 480,422C489,446 494,474 494,505C494,538 488,568 477,593C465,618 449,640 429,657C409,674 386,687 359,696C332,705 303,709 272,709C235,709 201,703 172,690C143,677 118,660 99,638C79,615 64,589 55,558C46,527 42,494 44,458z"/><glyph unicode="3" horiz-adv-x="556" d="M218,405l0,-72C234,335 251,336 269,336C290,336 310,333 329,328C347,322 363,313 376,302C389,290 400,276 408,259C416,242 420,222 420,200C420,179 416,160 408,143C399,126 388,111 374,100C360,88 344,79 325,73C306,66 287,63 266,63C217,63 180,78 155,107C130,136 116,173 115,219l-85,0C29,182 35,150 46,121C57,92 72,68 93,49C114,29 139,14 168,4C197,-6 230,-11 266,-11C299,-11 331,-6 361,3C390,12 416,25 438,43C460,61 478,84 491,111C504,138 510,169 510,204C510,247 500,284 479,315C458,346 425,367 382,376l0,2C410,391 433,409 452,434C471,459 480,487 480,519C480,552 475,580 464,604C453,628 437,648 418,663C399,678 376,690 350,698C323,705 295,709 264,709C229,709 198,703 171,692C144,681 121,665 103,645C85,625 71,601 62,573C52,545 46,514 45,480l85,0C130,501 133,520 138,539C143,558 152,574 163,588C174,602 188,613 205,622C222,630 241,634 264,634C300,634 330,625 354,606C378,587 390,558 390,520C390,501 386,485 379,470C372,455 362,443 350,434C337,424 323,417 307,412C290,407 273,404 255,404l-18,0C234,404 230,404 227,404C224,404 221,404 218,405z"/><glyph unicode="8" horiz-adv-x="556" d="M155,525C155,543 158,559 165,572C172,585 181,597 192,606C203,615 216,622 231,627C246,632 262,634 279,634C314,634 342,625 365,607C387,588 398,561 398,525C398,489 387,461 365,441C343,421 315,411 281,411C264,411 247,413 232,418C217,423 203,430 192,439C181,448 172,460 165,475C158,489 155,506 155,525M65,528C65,496 74,467 92,440C110,413 134,393 164,381C124,367 93,345 72,314C51,283 40,246 40,204C40,168 46,137 59,110C71,83 88,60 110,42C131,24 157,11 186,2C215,-7 247,-11 281,-11C314,-11 344,-6 373,3C402,12 427,26 448,45C469,63 485,85 498,112C510,139 516,169 516,204C516,248 506,285 485,316C464,346 433,368 390,381C420,394 444,414 462,441C479,467 488,496 488,528C488,551 484,573 476,595C468,616 456,636 439,653C422,670 399,683 372,694C345,704 312,709 273,709C246,709 220,705 195,697C170,689 147,677 128,662C109,647 93,628 82,606C71,583 65,557 65,528M130,200C130,221 134,239 142,256C149,273 160,287 174,299C187,311 203,320 222,327C240,333 259,336 280,336C300,336 319,333 337,326C354,319 370,309 383,297C396,285 407,271 415,255C422,238 426,220 426,201C426,181 423,163 416,146C409,129 399,115 386,103C373,90 357,81 340,74C322,67 302,63 281,63C237,63 201,75 173,100C144,124 130,157 130,200z"/><glyph unicode="O" horiz-adv-x="760" d="M133,357C133,393 138,429 147,464C156,499 171,530 191,558C211,586 237,609 268,626C299,643 337,651 380,651C423,651 461,643 492,626C523,609 549,586 569,558C589,530 604,499 613,464C622,429 627,393 627,357C627,321 622,286 613,251C604,216 589,184 569,156C549,128 523,106 492,89C461,72 423,63 380,63C337,63 299,72 268,89C237,106 211,128 191,156C171,184 156,216 147,251C138,286 133,321 133,357M38,357C38,308 45,262 60,217C74,172 95,132 124,97C153,62 188,35 231,15C274,-6 323,-16 380,-16C437,-16 486,-6 529,15C572,35 607,62 636,97C665,132 686,172 701,217C715,262 722,308 722,357C722,406 715,453 701,498C686,543 665,582 636,617C607,652 572,679 529,700C486,721 437,731 380,731C323,731 274,721 231,700C188,679 153,652 124,617C95,582 74,543 60,498C45,453 38,406 38,357z"/><glyph unicode="P" horiz-adv-x="648" d="M173,372l0,262l186,0C413,634 453,623 478,601C503,578 515,546 515,503C515,460 503,428 478,405C453,382 413,371 359,372M78,714l0,-714l95,0l0,292l218,0C463,291 518,310 555,347C592,384 610,436 610,503C610,570 592,622 555,659C518,696 463,714 391,714z"/><glyph unicode="X" horiz-adv-x="611" d="M248,367l-248,-367l106,0l198,295l192,-295l116,0l-251,367l236,347l-106,0l-186,-279l-178,279l-114,0z"/><glyph unicode="a" horiz-adv-x="537" d="M522,2C507,-7 487,-11 461,-11C439,-11 422,-5 409,8C396,20 389,40 389,68C366,40 339,20 308,8C277,-5 243,-11 207,-11C184,-11 162,-8 141,-3C120,2 101,11 86,22C71,33 59,48 50,67C41,85 36,107 36,133C36,162 41,186 51,205C61,224 74,239 91,251C107,262 126,271 147,277C168,283 189,288 211,292C234,297 257,300 278,303C299,305 317,308 333,313C349,317 362,323 371,332C380,340 385,352 385,368C385,387 382,402 375,413C368,424 359,433 348,439C337,445 324,449 311,451C297,453 283,454 270,454C234,454 204,447 180,434C156,420 143,394 141,356l-85,0C57,388 64,415 76,437C88,459 104,477 124,491C144,504 167,514 193,520C218,526 246,529 275,529C298,529 322,527 345,524C368,521 388,514 407,504C426,493 441,479 452,460C463,441 469,417 469,387l0,-266C469,101 470,86 473,77C475,68 483,63 496,63C503,63 512,65 522,68M384,267C373,259 359,253 342,250C325,246 307,243 288,241C269,238 249,236 230,233C211,230 193,225 178,218C163,211 150,202 141,190C131,177 126,160 126,139C126,125 129,113 135,104C140,94 148,86 157,80C166,74 176,70 188,67C200,64 213,63 226,63C254,63 278,67 298,75C318,82 334,92 347,104C360,115 369,128 375,142C381,155 384,168 384,180z"/><glyph unicode="e" horiz-adv-x="537" d="M423,308l-297,0C127,328 132,347 139,365C146,382 156,398 169,411C182,424 197,435 215,443C232,450 252,454 274,454C295,454 315,450 333,443C350,435 366,425 379,412C392,399 402,383 410,365C417,347 422,328 423,308M505,164l-84,0C414,130 399,105 376,88C353,71 323,63 287,63C259,63 235,68 214,77C193,86 176,99 163,115C150,130 140,148 134,169C128,189 125,210 126,233l387,0C514,264 512,297 505,332C498,367 485,399 467,428C448,457 424,482 394,501C363,520 325,529 279,529C244,529 211,522 182,509C152,496 126,477 105,453C83,429 66,401 54,368C42,335 36,299 36,260C37,221 43,184 54,151C64,118 79,89 100,65C121,41 146,22 177,9C207,-4 243,-11 284,-11C343,-11 391,4 430,33C469,62 494,106 505,164z"/><glyph unicode="f" horiz-adv-x="296" d="M99,442l0,-442l85,0l0,442l100,0l0,75l-100,0l0,72C184,612 190,627 201,635C212,643 228,647 249,647C256,647 264,647 273,646C282,645 290,643 297,640l0,74C289,717 280,719 270,720C259,721 250,722 242,722C195,722 160,711 136,690C111,668 99,636 99,594l0,-77l-87,0l0,-75z"/><glyph unicode="i" horiz-adv-x="222" d="M154,610l0,104l-85,0l0,-104M69,517l0,-517l85,0l0,517z"/><glyph unicode="l" horiz-adv-x="222" d="M69,714l0,-714l85,0l0,714z"/><glyph unicode="n" horiz-adv-x="556" d="M64,517l0,-517l85,0l0,292C149,315 152,337 159,357C165,376 174,393 187,408C200,423 216,434 235,442C254,450 276,454 302,454C335,454 360,445 379,426C398,407 407,382 407,350l0,-350l85,0l0,340C492,368 489,394 484,417C478,440 468,459 454,476C440,493 422,506 399,515C376,524 348,529 314,529C237,529 181,498 146,435l-2,0l0,82z"/><glyph unicode="o" horiz-adv-x="574" d="M126,258C126,289 130,317 139,342C147,366 158,386 173,403C188,420 205,432 225,441C244,450 265,454 287,454C309,454 330,450 350,441C369,432 386,420 401,403C416,386 427,366 436,342C444,317 448,289 448,258C448,227 444,199 436,175C427,150 416,130 401,114C386,97 369,85 350,76C330,67 309,63 287,63C265,63 244,67 225,76C205,85 188,97 173,114C158,130 147,150 139,175C130,199 126,227 126,258M36,258C36,220 41,185 52,152C63,119 79,91 100,67C121,42 148,23 179,10C210,-4 246,-11 287,-11C328,-11 365,-4 396,10C427,23 453,42 474,67C495,91 511,119 522,152C533,185 538,220 538,258C538,296 533,332 522,365C511,398 495,426 474,451C453,475 427,494 396,508C365,522 328,529 287,529C246,529 210,522 179,508C148,494 121,475 100,451C79,426 63,398 52,365C41,332 36,296 36,258z"/><glyph unicode="p" horiz-adv-x="593" d="M67,517l0,-714l85,0l0,266l2,0C163,54 175,41 189,31C202,20 217,12 232,6C247,0 263,-4 279,-7C294,-10 308,-11 321,-11C360,-11 395,-4 425,10C454,24 479,43 499,68C518,92 533,120 543,153C552,186 557,220 557,257C557,294 552,328 542,361C532,394 517,423 498,448C478,473 453,492 424,507C394,522 359,529 319,529C283,529 250,523 220,510C190,497 168,476 154,447l-2,0l0,70M467,263C467,238 464,213 459,189C454,165 445,144 433,125C421,106 405,91 386,80C366,69 341,63 312,63C283,63 258,69 237,80C216,91 200,105 187,123C174,141 164,162 158,186C152,209 149,234 149,259C149,283 152,307 158,330C163,353 172,374 185,393C198,411 214,426 234,437C254,448 278,454 307,454C334,454 358,449 379,438C399,427 416,413 429,395C442,377 451,357 458,334C464,311 467,287 467,263z"/><glyph unicode="r" horiz-adv-x="333" d="M61,517l0,-517l85,0l0,230C146,263 149,293 156,319C163,344 173,366 188,384C203,402 222,416 246,425C270,434 299,439 333,439l0,90C287,530 249,521 219,501C189,481 164,450 143,408l-2,0l0,109z"/><glyph unicode="t" horiz-adv-x="315" d="M182,517l0,155l-85,0l0,-155l-88,0l0,-75l88,0l0,-329C97,89 99,70 104,55C109,40 116,29 126,21C135,13 148,8 164,5C179,2 198,0 220,0l65,0l0,75l-39,0C233,75 222,76 214,77C205,78 199,80 194,83C189,86 186,91 185,97C183,103 182,111 182,121l0,321l103,0l0,75z"/></font>
</svg>
